Download Intergalactic S01 COMPLETE WEB-DL XviD B4ND1T69 torrent - GloDLS
Login
Username:
Password:
Remember Me:
[Signup]
[Recover Account]
Friends
Angie Torrents
Friendly Site

Pirateiro
Friendly site

Free Courses Online
Friendly site

ETTV
Friendly site

ProStyleX
Friendly site

KaranPC
Friendly site

P2PDL.com
Friendly site

OneHack
Friendly site

IGGGames
Friendly site

Torrent Details For "Intergalactic S01 COMPLETE WEB-DL XviD B4ND1T69"

Intergalactic S01 COMPLETE WEB-DL XviD B4ND1T69

To download this torrent, you need a BitTorrent client: Vuze or BTGuard
Download this torrent
Download using Magnet Link

Health:
Seeds: 50
Leechers: 40
Completed: 1,776 
Last Checked: 17-05-2021 13:01:38

Uploader Reputation points : 794
External: Torrent






Write a Review for the Uploader:   0   Say Thanks with one good review:
Share on Facebook
TV Info

Intergalactic

It is the 23rd Century and Earth's space empire exiles its prisoners off-planet. Or at least they did until a crew of fierce and adventurous female crims break free and go on the run, heading for Arcadia. The show follows Ash, a young flight cadet falsely imprisoned before becoming embroiled in an audacious prison break-out. Across their perilous escape through space, this disparate gang of dynamic women fight, fall in love and betray each other. But one thing is for certain, the further they travel from Earth, the closer they come to understanding who they truly are.



Details
Name:Intergalactic S01 COMPLETE WEB-DL XviD B4ND1T69
Description:
Intergalactic.S01.COMPLETE.WEB-DL.XviD.B4ND1T69



Stars: Imogen Daines, Parminder Nagra, Natasha O'Keeffe

Plot/Story:
It follows a crew of fierce female convicts who break free and go on the run.

General
Complete name               : Intergalactic.S01.COMPLETE.WEB-DL.XviD.B4ND1T69.avi
Format                      : AVI
Format/Info                 : Audio Video Interleave
File size                   : 2.65 GiB
Duration                    : 46 min (approx per episode)
Overall bit rate            : 1 029 kb/s (approx per episode)
Subtitles                   : Yes...Included(HI)

Video
ID                          : 0
Format                      : MPEG-4 Visual
Format profile              : Advanced [email protected]
Format settings, BVOP       : 2
Format settings, QPel       : No
Format settings, GMC        : No warppoints
Format settings, Matrix     : Default (H.263)
Codec ID                    : XVID
Codec ID/Hint               : XviD
Duration                    : 46 min (approx per episode)
Bit rate                    : 888 kb/s (approx per episode)
Width                       : 640 pixels
Height                      : 272 pixels
Display aspect ratio        : 2.35:1
Frame rate                  : 25.000 FPS
Color space                 : YUV
Chroma subsampling          : 4:2:0
Bit depth                   : 8 bits
Scan type                   : Progressive
Compression mode            : Lossy
Bits/(Pixel*Frame)          : 0.204
Stream size                 : 298 MiB (86%)
Writing library             : XviD 64

Audio
ID                          : 1
Format                      : MPEG Audio
Format version              : Version 1
Format profile              : Layer 3
Codec ID                    : 55
Codec ID/Hint               : MP3
Duration                    : 46 min (approx per episode)
Bit rate mode               : Constant
Bit rate                    : 128 kb/s
Channel(s)                  : 2 channels
Sampling rate               : 48.0 kHz
Compression mode            : Lossy
Stream size                 : 42.9 MiB (12%)
Alignment                   : Aligned on interleaves
Interleave, duration        : 24  ms (0.60 video frame)

Screenshots:








Please Seed For As Long As Possible
Or At Least 1:1 Ratio...Thanks
Enjoy Peeps
YouTube Video:   
Category:TV
Language:English  English
Total Size:2.66 GB
Info Hash:B7FEFF5CB8D66A0BAEBD1393C25A3A321FAF450F
Added By:B4ND1T69 Verified UploaderMovie Pirate
Date Added:2021-05-05 04:31:11
Torrent Status:Torrent Verified


Ratings:Not Yet Rated (Log in to rate it)


Tracker:
udp://tracker.opentrackr.org:1337/announce

This Torrent also has backup trackers
URLSeedersLeechersCompleted
udp://tracker.opentrackr.org:1337/announce55357
udp://exodus.desync.com:6969/announce633
udp://open.demonii.si:1337/announce000
udp://9.rarbg.to:2750/announce74560
udp://open.stealth.si:80/announce73225
udp://tracker.uw0.xyz:6969/announce73224
udp://tracker.tiny-vps.com:6969/announce000
udp://fasttracker.foreverpirates.co:6969/announce000
udp://explodie.org:6969/announce250
udp://tracker.cyberia.is:6969/announce000
udp://ipv4.tracker.harry.lu:80/announce150
udp://opentracker.i2p.rocks:6969/announce55284
udp://tracker.moeking.me:6969/announce5336
udp://opentor.org:2710/announce5487
udp://tracker.dler.org:6969/announce000


File List: 





Comments
No comments still posted