Download Gattaca 1997 REMASTERED BRRip XviD B4ND1T69 torrent - GloDLS
Login
Username:
Password:
Remember Me:
[Signup]
[Recover Account]
Friends
Angie Torrents
Friendly Site

Pirateiro
Friendly site

Free Courses Online
Friendly site

ETTV
Friendly site

ProStyleX
Friendly site

KaranPC
Friendly site

P2PDL.com
Friendly site

OneHack
Friendly site

IGGGames
Friendly site

Torrent Details For "Gattaca 1997 REMASTERED BRRip XviD B4ND1T69"

Gattaca 1997 REMASTERED BRRip XviD B4ND1T69

To download this torrent, you need a BitTorrent client: Vuze or BTGuard
Download this torrent
Download using Magnet Link

Health:
Seeds: 228
Leechers: 0
Completed: 1,304 
Last Checked: 06-05-2021 08:49:10

Uploader Reputation points : 786
External: Torrent






Write a Review for the Uploader:   0   Say Thanks with one good review:
Share on Facebook


Details
Name:Gattaca 1997 REMASTERED BRRip XviD B4ND1T69
Description:
Gattaca.1997.REMASTERED.BRRip.XviD.B4ND1T69



Director: Andrew Niccol
Writer: Andrew Niccol
Stars: Ethan Hawke, Uma Thurman, Jude Law

Plot/Story:
A genetically inferior man assumes the identity of a superior one in order to pursue his lifelong dream of space travel.

General
Complete name               : Gattaca.1997.REMASTERED.BRRip.XviD.B4ND1T69.avi
Format                      : AVI
Format/Info                 : Audio Video Interleave
File size                   : 955 MiB
Duration                    : 1 h 46 min
Overall bit rate            : 1 254 kb/s
Subtitles                   : Yes...Included(HI)

Video
ID                          : 0
Format                      : MPEG-4 Visual
Format profile              : Advanced [email protected]
Format settings, BVOP       : 2
Format settings, QPel       : No
Format settings, GMC        : No warppoints
Format settings, Matrix     : Default (H.263)
Codec ID                    : XVID
Codec ID/Hint               : XviD
Duration                    : 1 h 46 min
Bit rate                    : 1 113 kb/s
Width                       : 720 pixels
Height                      : 304 pixels
Display aspect ratio        : 2.35:1
Frame rate                  : 23.976 (24000/1001) FPS
Color space                 : YUV
Chroma subsampling          : 4:2:0
Bit depth                   : 8 bits
Scan type                   : Progressive
Compression mode            : Lossy
Bits/(Pixel*Frame)          : 0.212
Stream size                 : 848 MiB (89%)
Writing library             : XviD 64

Audio
ID                          : 1
Format                      : MPEG Audio
Format version              : Version 1
Format profile              : Layer 3
Codec ID                    : 55
Codec ID/Hint               : MP3
Duration                    : 1 h 46 min
Bit rate mode               : Constant
Bit rate                    : 128 kb/s
Channel(s)                  : 2 channels
Sampling rate               : 48.0 kHz
Compression mode            : Lossy
Stream size                 : 97.5 MiB (10%)
Alignment                   : Aligned on interleaves
Interleave, duration        : 24  ms (0.58 video frame)

Screenshots:










Please Seed For As Long As Possible
Or At Least 1:1 Ratio...Thanks
Enjoy Peeps
YouTube Video:   
Category:Movies
Language:English  English
Total Size:955.46 MB
Info Hash:AC2737F9CCE72DC02372D0D55F2E762D95356FB8
Added By:B4ND1T69 Verified UploaderMovie Pirate
Date Added:2021-05-05 06:21:49
Torrent Status:Torrent Verified


Ratings:Not Yet Rated (Log in to rate it)


Tracker:
udp://tracker.opentrackr.org:1337/announce

This Torrent also has backup trackers
URLSeedersLeechersCompleted
udp://tracker.opentrackr.org:1337/announce310230
udp://exodus.desync.com:6969/announce150109
udp://open.demonii.si:1337/announce000
udp://9.rarbg.to:2750/announce250263
udp://open.stealth.si:80/announce220112
udp://tracker.uw0.xyz:6969/announce220117
udp://tracker.tiny-vps.com:6969/announce000
udp://fasttracker.foreverpirates.co:6969/announce17068
udp://explodie.org:6969/announce1400
udp://tracker.cyberia.is:6969/announce000
udp://ipv4.tracker.harry.lu:80/announce1400
udp://opentracker.i2p.rocks:6969/announce280168
udp://tracker.moeking.me:6969/announce180120
udp://opentor.org:2710/announce220117
udp://tracker.dler.org:6969/announce000


File List: 





Comments
No comments still posted