Download First Man 2018 IMAX BRRip XviD B4ND1T69 torrent - GloDLS
Login
Username:
Password:
Remember Me:
[Signup]
[Recover Account]
Friends
Angie Torrents
Friendly Site

Pirateiro
Friendly site

Free Courses Online
Friendly site

ETTV
Friendly site

ProStyleX
Friendly site

KaranPC
Friendly site

P2PDL.com
Friendly site

OneHack
Friendly site

IGGGames
Friendly site

Torrent Details For "First Man 2018 IMAX BRRip XviD B4ND1T69"

First Man 2018 IMAX BRRip XviD B4ND1T69

To download this torrent, you need a BitTorrent client: Vuze or BTGuard
Download this torrent
Download using Magnet Link

Health:
Seeds: 147
Leechers: 41
Completed: 177 
Last Checked: 04-05-2021 23:40:15

Uploader Reputation points : 794
External: Torrent






Write a Review for the Uploader:   0   Say Thanks with one good review:
Share on Facebook


Details
Name:First Man 2018 IMAX BRRip XviD B4ND1T69
Description:
First.Man.2018.IMAX.BRRip.XviD.B4ND1T69



Director: Damien Chazelle
Writers: Josh Singer (screenplay by), James R. Hansen (based on the book by)
Stars: Ryan Gosling, Claire Foy, Jason Clarke

Plot/Story:
A look at the life of the astronaut, Neil Armstrong, and the legendary space mission that led him to become the first man to walk on the Moon on July 20, 1969.

General
Complete name               : First.Man.2018.IMAX.BRRip.XviD.B4ND1T69.avi
Format                      : AVI
Format/Info                 : Audio Video Interleave
File size                   : 843 MiB
Duration                    : 2 h 20 min
Overall bit rate            : 836 kb/s
Subtitles                   : Yes...Included(HI)

Video
ID                          : 0
Format                      : MPEG-4 Visual
Format profile              : Advanced [email protected]
Format settings, BVOP       : 2
Format settings, QPel       : No
Format settings, GMC        : No warppoints
Format settings, Matrix     : Default (H.263)
Codec ID                    : XVID
Codec ID/Hint               : XviD
Duration                    : 2 h 20 min
Bit rate                    : 695 kb/s
Width                       : 688 pixels
Height                      : 384 pixels
Display aspect ratio        : 16:9
Frame rate                  : 23.976 (24000/1001) FPS
Color space                 : YUV
Chroma subsampling          : 4:2:0
Bit depth                   : 8 bits
Scan type                   : Progressive
Compression mode            : Lossy
Bits/(Pixel*Frame)          : 0.110
Stream size                 : 701 MiB (83%)
Writing library             : XviD 64

Audio
ID                          : 1
Format                      : MPEG Audio
Format version              : Version 1
Format profile              : Layer 3
Codec ID                    : 55
Codec ID/Hint               : MP3
Duration                    : 2 h 20 min
Bit rate mode               : Constant
Bit rate                    : 128 kb/s
Channel(s)                  : 2 channels
Sampling rate               : 48.0 kHz
Compression mode            : Lossy
Stream size                 : 129 MiB (15%)
Alignment                   : Aligned on interleaves
Interleave, duration        : 24  ms (0.58 video frame)

Screenshots:










Please Seed For As Long As Possible
Or At Least 1:1 Ratio...Thanks
Enjoy Peeps
YouTube Video:   
Category:Movies
Language:English  English
Total Size:843.02 MB
Info Hash:B6CD76EF071DB7C0B578C6E3220F5CF804EFDEE6
Added By:B4ND1T69 Verified UploaderMovie Pirate
Date Added:2021-05-05 05:08:53
Torrent Status:Torrent Verified


Ratings:Not Yet Rated (Log in to rate it)


Tracker:
udp://tracker.opentrackr.org:1337/announce

This Torrent also has backup trackers
URLSeedersLeechersCompleted
udp://tracker.opentrackr.org:1337/announce18726
udp://exodus.desync.com:6969/announce10217
udp://open.demonii.si:1337/announce000
udp://9.rarbg.to:2750/announce000
udp://open.stealth.si:80/announce15222
udp://tracker.uw0.xyz:6969/announce15223
udp://tracker.tiny-vps.com:6969/announce16415
udp://fasttracker.foreverpirates.co:6969/announce7610
udp://explodie.org:6969/announce1160
udp://tracker.cyberia.is:6969/announce000
udp://ipv4.tracker.harry.lu:80/announce1350
udp://opentracker.i2p.rocks:6969/announce14322
udp://tracker.moeking.me:6969/announce14121
udp://opentor.org:2710/announce14321
udp://tracker.dler.org:6969/announce000


File List: 





Comments
No comments still posted