Download Braveheart 1995 BRRip XviD B4ND1T69 torrent - GloDLS
Login
Username:
Password:
Remember Me:
[Signup]
[Recover Account]
Friends
Angie Torrents
Friendly Site

Pirateiro
Friendly site

Free Courses Online
Friendly site

ETTV
Friendly site

ProStyleX
Friendly site

KaranPC
Friendly site

P2PDL.com
Friendly site

OneHack
Friendly site

IGGGames
Friendly site

Torrent Details For "Braveheart 1995 BRRip XviD B4ND1T69"

Braveheart 1995 BRRip XviD B4ND1T69

To download this torrent, you need a BitTorrent client: Vuze or BTGuard
Download this torrent
Download using Magnet Link

Health:
Seeds: 30
Leechers: 1
Completed: 490 
Last Checked: 15-05-2021 00:59:59

Uploader Reputation points : 794
External: Torrent






Write a Review for the Uploader:   0   Say Thanks with one good review:
Share on Facebook


Details
Name:Braveheart 1995 BRRip XviD B4ND1T69
Description:
Braveheart.1995.BRRip.XviD.B4ND1T69



Director: Mel Gibson
Writer: Randall Wallace
Stars: Mel Gibson, Sophie Marceau, Patrick McGoohan

Plot/Story:
Scottish warrior William Wallace leads his countrymen in a rebellion to free his homeland from the tyranny of King Edward I of England.

General
Complete name               : Braveheart.1995.BRRip.XviD.B4ND1T69.avi
Format                      : AVI
Format/Info                 : Audio Video Interleave
File size                   : 1.83 GiB
Duration                    : 2 h 57 min
Overall bit rate            : 1 478 kb/s
Subtitles                   : Yes...Included(HI)

Video
ID                          : 0
Format                      : MPEG-4 Visual
Format profile              : Advanced [email protected]
Format settings, BVOP       : 2
Format settings, QPel       : No
Format settings, GMC        : No warppoints
Format settings, Matrix     : Default (H.263)
Codec ID                    : XVID
Codec ID/Hint               : XviD
Duration                    : 2 h 57 min
Bit rate                    : 1 337 kb/s
Width                       : 720 pixels
Height                      : 304 pixels
Display aspect ratio        : 2.35:1
Frame rate                  : 23.976 (24000/1001) FPS
Color space                 : YUV
Chroma subsampling          : 4:2:0
Bit depth                   : 8 bits
Scan type                   : Progressive
Compression mode            : Lossy
Bits/(Pixel*Frame)          : 0.255
Stream size                 : 1.66 GiB (90%)
Writing library             : XviD 64

Audio
ID                          : 1
Format                      : MPEG Audio
Format version              : Version 1
Format profile              : Layer 3
Codec ID                    : 55
Codec ID/Hint               : MP3
Duration                    : 2 h 57 min
Bit rate mode               : Constant
Bit rate                    : 128 kb/s
Channel(s)                  : 2 channels
Sampling rate               : 48.0 kHz
Compression mode            : Lossy
Stream size                 : 163 MiB (9%)
Alignment                   : Aligned on interleaves
Interleave, duration        : 24  ms (0.58 video frame)

Screenshots:










Please Seed For As Long As Possible
Or At Least 1:1 Ratio...Thanks
Enjoy Peeps
YouTube Video:   
Category:Movies
Language:English  English
Total Size:1.83 GB
Info Hash:971753009CFF69CCC4A503DA98995107BE6823A7
Added By:B4ND1T69 Verified UploaderMovie Pirate
Date Added:2021-05-05 05:35:00
Torrent Status:Torrent Verified


Ratings:Not Yet Rated (Log in to rate it)


Tracker:
udp://tracker.opentrackr.org:1337/announce

This Torrent also has backup trackers
URLSeedersLeechersCompleted
udp://tracker.opentrackr.org:1337/announce51166
udp://exodus.desync.com:6969/announce201
udp://open.demonii.si:1337/announce000
udp://9.rarbg.to:2750/announce400
udp://open.stealth.si:80/announce3084
udp://tracker.uw0.xyz:6969/announce2092
udp://tracker.tiny-vps.com:6969/announce203
udp://fasttracker.foreverpirates.co:6969/announce000
udp://explodie.org:6969/announce200
udp://tracker.cyberia.is:6969/announce000
udp://ipv4.tracker.harry.lu:80/announce200
udp://opentracker.i2p.rocks:6969/announce40129
udp://tracker.moeking.me:6969/announce202
udp://opentor.org:2710/announce2013
udp://tracker.dler.org:6969/announce000


File List: 





Comments
No comments still posted